PS2 запись игр

Тема в разделе "PlayStation 4", создана пользователем dimkaksu, 9 апр 2007.

  1. dimkaksu

    dimkaksu Well-Known Member

    Сообщения:
    3
    Симпатии:
    0
    Баллы:
    56
    помогите-скачал игру в папке много архивов после разархивации у меня образовался образ с расширением bin после я его перевел в iso и записал на диск но толку нет в чем проблема.nero burning увидел образ как CD образ а я записал на DVD может из-за этого
     
  2. GamerSuper

    GamerSuper New Member

    Сообщения:
    1.056
    Симпатии:
    16
    Баллы:
    0
    потому что в исо не надо было переводить.
    тем более записывать исо-образ на двд.
    ясно что ничего не работает.
    как ест так и пиши, никуда ничего не конвертировав и на СД.
     
  3. pvc1

    pvc1 Т-101

    Сообщения:
    6.858
    Симпатии:
    379
    Баллы:
    303
    Обычно к .bin идет еще .cue
     
  4. qaz2903

    qaz2903 Well-Known Member

    Сообщения:
    122
    Симпатии:
    3
    Баллы:
    61
    Если записать bin или iso без сue файла то работать на сони не будет.

    Нужно открывать перед записью Сue файл, который будет ссылатся на файл bin, то есть образ с игрой.

    Образы конвертировать не нужно.
    Особенно в проге UltraISO
     
  5. pvc1

    pvc1 Т-101

    Сообщения:
    6.858
    Симпатии:
    379
    Баллы:
    303
    Ну насчет iso это ты загнул, без cue он пишется без проблем ;)
     
  6. qaz2903

    qaz2903 Well-Known Member

    Сообщения:
    122
    Симпатии:
    3
    Баллы:
    61
    Хм.. на первой сони не работало у меня ;)

    Во всяком случает если в образе есть отдельные муз. треки, то после записи на приставке муз треки работать не будут.
     
  7. ps2fan

    ps2fan Долбанутый консольщик

    Сообщения:
    2.346
    Симпатии:
    110
    Баллы:
    123
    На первой соне диски вообще в Mode2/XA 2352 байт на сектор. Образ в чистом ISO (не путать с RAW, которы тоже часто называют ISO) неприемлем, т.к. в нем мы имеем Mode 1/ 2048 байт на сектор и следовательно теряем 304 байта в каждом секторе, а так же все аудио треки, если они есть. Для PSX оптимальный формат хранения образов - cue/bin.
    Поправьте меня, люди с высоким IQ, если я не прав :sleep1:
     
  8. qaz2903

    qaz2903 Well-Known Member

    Сообщения:
    122
    Симпатии:
    3
    Баллы:
    61
    Ой загнул конечно :sorry: DVD образ iso норм пишется.
    это я про первую сони.

    Может я путаю с RAW, но если добавить СUE к iso с таким содержимым
    FILE "ХХХ.ISO" BINARY
    TRACK 01 MODE2/2352
    INDEX 01 00:00:00
    То все ок работает.
    Если есть муз треки, то далее будет типа того
    TRACK 02 AUDIO
    PREGAP 00:02:00
    INDEX 01 00:55:67
    TRACK 03 AUDIO
    INDEX 01 01:31:57
    Тут уж без оригинального CD не обойтись.
     
  9. SAMuel

    SAMuel Well-Known Member

    Сообщения:
    670
    Симпатии:
    13
    Баллы:
    68
    Угу, если есть аудио треки то CUE обязательно нужен, иначе игра после записи образа без CUE файлика то будет без ваша игра музыки, что неочень приятно.
    Угу, подтверждаю, UltraISO прога для косольных игр никак некатит, незнаю чего она там творит но образы мёртвые.
     
  10. Chook

    Chook Дерусификато

    Сообщения:
    1.677
    Симпатии:
    83
    Баллы:
    93
    SAMuel, UltraISO не может создавать образы в формате MODE2 тока в моде1. Точнее у нее проблоемы с модой2. А приставка толтко в моде2 диски понимает.
    Проще созавать нерой тогда выбирая моду2.
     
  11. ps2fan

    ps2fan Долбанутый консольщик

    Сообщения:
    2.346
    Симпатии:
    110
    Баллы:
    123
    Конечно путаешь, смотри, у тебя же в куе написано: MODE2/2352
     
  12. SAMuel

    SAMuel Well-Known Member

    Сообщения:
    670
    Симпатии:
    13
    Баллы:
    68
    Сенки, теберь буду знать чего Ультра Иса такая корявая, я пишу диски в зависимости от формата образа, либо Алкоголь либо Неро и Ашампа.
     
  13. ignore

    ignore Well-Known Member

    Сообщения:
    151
    Симпатии:
    7
    Баллы:
    63
    миеется iso образ GT4 размером 5.27Гб. также имеется двухслойная болванка Verbatim DVD+R DL 8.5Gb. подскажите, как правильно записать игру на двухслойную болванку?
     
  14. Vic

    Vic L0neWarri0r

    Сообщения:
    2.170
    Симпатии:
    157
    Баллы:
    123
    ignore,
    ImgBurn
     
  15. ScooloV

    ScooloV Well-Known Member

    Сообщения:
    3.667
    Симпатии:
    649
    Баллы:
    303
    А разве "тупой" чип такое прочитать сможет? Там же есть разница, в разную сторону слои пишут или в одну...
     
  16. wazup

    wazup Well-Known Member

    Сообщения:
    22
    Симпатии:
    1
    Баллы:
    59
    снял образ clock tower 3
    Размер 4 707 319 808 - на болванку сволочь не лезет
    getmd5 пишет REAL Size: 4 678 582 272
    и BAD. OVERDUMP 14032 SECTORS!
    (думаю после обрезки образ влезет на диск)
    подскажите плиз чем обрезать эти нули!!!
    заранее блогодарю за ответ
     
  17. ScooloV

    ScooloV Well-Known Member

    Сообщения:
    3.667
    Симпатии:
    649
    Баллы:
    303
    Говорят можно WinHex'ом, правда я там долго лазал, но нужного так и не нашел. Правда потом у меня сам WinHex перестал запускаться :(
     
  18. wazup

    wazup Well-Known Member

    Сообщения:
    22
    Симпатии:
    1
    Баллы:
    59
    ScooloV, спасибо! Винхексом без проблем обрезал, еще раз прошел утилитой getmd5 - все ок, только lock сектора нет ,но думаю это не беда. щас нарежу и попробую.
     
  19. ScooloV

    ScooloV Well-Known Member

    Сообщения:
    3.667
    Симпатии:
    649
    Баллы:
    303
    Если нетрудно, можно ссылку на этот нормальный инстальник?
    И небольшую инструкцию...
     
  20. wazup

    wazup Well-Known Member

    Сообщения:
    22
    Симпатии:
    1
    Баллы:
    59
    Clock tower 3
    --------------
    1. Alchohol-eм сделал образ
    2. При записи на диск пишет - мало места
    3. Запустил GetMD5
    ------------------------------------------
    File Name: CLOCK_TOWER_3.mdf
    File Size: 4 707 319 808
    REAL Size: 4 678 582 272
    IMAGE: BAD. OVERDUMP 14032 SECTORS!
    ------------------------------------------
    FILE MD5: b1704b4739359b0393a677b74fb0d141
    REAL MD5: 436a64b326ed08fa9c2a8eecf48b8697
    ------------------------------------------
    REAL SECTORS: 2284464 SIZE: 0x116DD8000
    ZERO SECTORS: 14032
    ==========================================
    Ага! Размер 4 707 319 808 - на болванку поэтому не лезет
    4. По совету ScooloV скачал WinHex.14.7 (только он shareware, так что следом на rufull.ru)
    5. В программе скакнул на смещение 116DD8000
    - Go to Offset 116DD8000
    - Выделяешь начало блока, затем конец блока (shift+стрелки или мышь)
    - Edit-Remove (Удалим все нули до самого конца!)
    - Save
    7. Снова Запустил GetMD5
    ------------------------------------------
    File Name: CLOCK_TOWER_3.mdf
    File Size: 4 678 582 272
    IMAGE: OK! NO LOCK SECTOR
    ------------------------------------------
    REAL MD5: 436a64b326ed08fa9c2a8eecf48b8697
    ------------------------------------------
    REAL SECTORS: 2284464 SIZE: 0x116DD8000
    ==========================================
    8. Записал на болванку (все влезло), только надо сначала mds-файл удалить, а то в нем инфа не верная
    Вчера проверил - сонька без проблем читает! Дажу лучше чем оригинал.